<?xml version="1.0" standalone="no"?>
<!DOCTYPE svg PUBLIC "-//W3C//DTD SVG 1.1//EN" "http://www.w3.org/Graphics/SVG/1.1/DTD/svg11.dtd" >
<svg xmlns="http://www.w3.org/2000/svg">
  <metadata>Created by iconfont</metadata>
  <defs>
  <font id="iconfont" horiz-adv-x="1024">
    <font-face
      font-family="iconfont"
      font-weight="400"
      font-stretch="normal"
      units-per-em="1024"
      ascent="896"
      descent="-128"
    />
      <missing-glyph />
      
      <glyph glyph-name="fuzhi1" unicode="&#59119;" d="M352 768h576a32 32 0 0 0 32-32v-640a32 32 0 0 0-32-32H832v64h64V704H384v-64H320V736a32 32 0 0 0 32 32zM704 0V512H192v-512h512zM160 576h576a32 32 0 0 0 32-32v-576a32 32 0 0 0-32-32h-576a32 32 0 0 0-32 32v576a32 32 0 0 0 32 32z m384-192h-192c-21.312 0-32-10.688-32-32 0-21.312 10.688-32 32-32h192c21.312 0 32 10.688 32 32 0 21.312-10.688 32-32 32z m-192-192h192c21.312 0 32-10.688 32-32 0-21.312-10.688-32-32-32h-192c-21.312 0-32 10.688-32 32 0 21.312 10.688 32 32 32z"  horiz-adv-x="1024" />
      
      <glyph glyph-name="fuzhi" unicode="&#59118;" d="M352 768h576a32 32 0 0 0 32-32v-640a32 32 0 0 0-32-32H832v64h64V704H384v-64H320V736a32 32 0 0 0 32 32zM704 0V512H192v-512h512zM160 576h576a32 32 0 0 0 32-32v-576a32 32 0 0 0-32-32h-576a32 32 0 0 0-32 32v576a32 32 0 0 0 32 32z m384-192h-192c-21.312 0-32-10.688-32-32 0-21.312 10.688-32 32-32h192c21.312 0 32 10.688 32 32 0 21.312-10.688 32-32 32z m-192-192h192c21.312 0 32-10.688 32-32 0-21.312-10.688-32-32-32h-192c-21.312 0-32 10.688-32 32 0 21.312 10.688 32 32 32z"  horiz-adv-x="1024" />
      
      <glyph glyph-name="a-proxyspeed" unicode="&#59106;" d="M1020.164794 853.173533a43.913109 43.913109 0 0 1-40.908864 40.269663C698.646692 915.17603 496.019975 779.665418 371.37578 607.72035c-69.033708 22.372035-143.181024 14.701623-210.936329-23.650437C95.240949 547.635456 39.630462 485.632959 4.474407 410.207241a44.48839 44.48839 0 0 1 61.363296-58.167291c70.951311 37.712859 151.490637 30.681648 199.430711-17.897628l196.234707-195.595506s0-0.639201 1.278402-1.278402c47.940075-47.940075 54.971286-127.8402 17.897628-199.430711-8.948814-16.619226-5.752809-37.712859 7.031211-51.775281 8.309613-8.948814 20.454432-14.062422 31.96005-14.062422 6.39201 0 12.78402 1.278402 19.17603 4.474407 75.425718 35.795256 137.428215 90.766542 174.501873 155.965044 38.35206 67.755306 46.022472 142.541823 23.011236 211.57553 50.496879 36.434457 95.240949 76.70412 133.593008 121.44819 116.334582 136.149813 167.470662 299.785268 151.490637 486.43196l-1.278402 1.278402zM148.933833 465.178527C196.234707 512.479401 256.958801 540.604245 320.2397 529.737828c-17.258427-30.681648-32.599251-62.002497-45.383271-93.323346a248.649189 248.649189 0 0 1-125.922596 28.764045z m442.966292-442.966292c1.278402 45.383271-8.309613 88.848939-29.403246 126.561797 32.599251 13.423221 63.280899 29.403246 93.323346 46.022472 12.144819-63.9201-16.619226-125.283396-63.9201-172.584269z m-88.209738 198.79151L347.086142 377.60799C425.707865 587.905119 620.66417 812.90387 933.233458 806.51186c10.227216-372.654182-297.228464-533.732834-429.543071-585.508115z m287.001248 442.966292a72.613233 72.613233 0 0 0 0-102.272159 72.613233 72.613233 0 0 0-102.272159 0 72.613233 72.613233 0 0 0 0 102.272159 72.613233 72.613233 0 0 0 102.272159 0z m-625.138576-461.503121c-51.13608-51.13608-53.053683-153.40824-53.053683-173.22347 0-24.289638 19.815231-44.74407 44.104869-44.74407h1.278402c23.011236 0 121.44819 3.835206 171.305867 53.692884 31.320849 31.320849 38.35206 63.9201 38.35206 85.013733 0 29.403246-12.78402 58.806492-35.795256 81.817727-56.249688 56.249688-125.283396 38.35206-166.192259-1.917603v-0.639201z m100.993757-100.993757c-10.866417-10.866417-35.795256-18.536829-60.724094-22.372035 4.474407 25.56804 12.144819 49.857678 22.372035 60.724094 7.031211 7.031211 14.062422 12.144819 21.732834 12.144819 5.752809 0 12.144819-2.556804 18.536828-9.588015 6.39201-6.39201 9.588015-12.78402 9.588015-18.536828 0-7.670412-6.39201-15.980025-12.144819-21.732834l0.639201-0.639201z"  horiz-adv-x="1025" />
      
      <glyph glyph-name="icon-download" unicode="&#59107;" d="M512 5.632A378.432 378.432 0 1 0 512 762.496a378.432 378.432 0 0 0 0-756.864z m0-89.088A467.456 467.456 0 1 1 512 851.584a467.456 467.456 0 0 1 0-935.04z m-44.48 393.088L343.168 433.984l-62.976-62.976 200.32-200.32 31.488-31.488 31.488 31.488 200.32 200.32-62.912 62.976-124.352-124.352V647.36H467.52v-337.728z"  horiz-adv-x="1024" />
      
      <glyph glyph-name="icon-ping" unicode="&#59108;" d="M512 5.568A378.432 378.432 0 1 0 512 762.432a378.432 378.432 0 0 0 0-756.864z m0-89.024A467.456 467.456 0 1 1 512 851.52a467.456 467.456 0 0 1 0-934.976zM588.032 660.288l148.224-148.224a48.96 48.96 0 0 0-34.56-83.584H311.68V517.504h293.248L525.12 597.376l62.912 62.912z m-277.952-404.48l148.224-148.224 62.976 62.976-79.872 79.808h293.248V339.456H344.704a48.96 48.96 0 0 1-34.624-83.648z"  horiz-adv-x="1024" />
      
      <glyph glyph-name="icon-check-circle" unicode="&#59109;" d="M512 832a448 448 0 1 1 0.064-896.064A448 448 0 0 1 512 832z m193.472-301.696l-210.56-292.032a31.744 31.744 0 0 0-51.712 0l-124.672 172.8a8 8 0 0 0 6.464 12.736h46.912c10.24 0 19.84-4.928 25.92-13.312L468.992 311.68l157.184 218.048a32 32 0 0 0 25.92 13.248h46.912c6.464 0 10.24-7.36 6.464-12.672z"  horiz-adv-x="1024" />
      
      <glyph glyph-name="a-IPquery" unicode="&#59110;" d="M512 798.528a310.912 310.912 0 0 0 90.496-608.448L512 99.648 421.568 190.08A311.04 311.04 0 0 0 512 798.528z m105.408-310.912a105.408 105.408 0 1 1-210.816 0 105.408 105.408 0 0 1 210.816 0z m-413.696-487.296c-16.768 6.08-25.408 12.608-25.408 19.2 0 13.248 35.136 25.984 97.728 35.392 62.592 9.344 147.456 14.656 235.968 14.656s173.44-5.248 235.968-14.72c62.592-9.344 97.728-22.08 97.728-35.328 0-6.592-8.576-13.12-25.344-19.2s-41.344-11.52-72.32-16.192c-31.04-4.672-67.84-8.32-108.288-10.88-40.512-2.56-83.904-3.84-127.744-3.84s-87.232 1.28-127.68 3.84a1278.976 1278.976 0 0 0-108.288 10.88c-30.976 4.608-55.552 10.176-72.32 16.192z"  horiz-adv-x="1024" />
      
      <glyph glyph-name="icon-youqiehuan" unicode="&#59111;" d="M341.312 85.312l384 307.2-384 307.2v-614.4z"  horiz-adv-x="1024" />
      
      <glyph glyph-name="a-proxysuccessrate" unicode="&#59112;" d="M894.72 803.84c20.48-2.56 36.48-19.84 38.4-40.96h-1.92v-730.24c0-24.96-20.48-45.44-45.44-45.44h-5.76l-198.4 26.88v-103.04c-3.84-24.96-26.88-42.24-51.84-38.4L38.4-36.48a45.44 45.44 0 0 0-38.4 44.8V759.68c0 1.92 0 4.48 0.64 6.4 3.84 24.96 26.88 42.24 51.84 38.4l197.76-30.08V850.56c0 24.96 20.48 45.44 45.44 45.44h7.04l592-92.16zM91.52 706.56v-659.2l500.48-76.8V629.76l-500.48 76.8z m591.36-601.6l159.36-21.76V720l-500.48 76.8v-37.12l302.72-46.08c21.76-3.2 38.4-22.4 38.4-44.8v-563.84z m-376.96 92.8L180.48 277.12v0.64a45.568 45.568 0 0 0 45.44 78.72l3.2-1.92 89.6-56.96 145.28 193.92a45.888 45.888 0 0 0 75.52-51.84l-1.92-3.2-170.88-227.84c-13.44-17.92-37.76-23.04-57.6-12.8l-3.2 1.92z"  horiz-adv-x="1024" />
      
      <glyph glyph-name="Close" unicode="&#59113;" d="M571.2 384l299.968 357.632a9.088 9.088 0 0 1-6.976 14.976h-91.2a18.56 18.56 0 0 1-14.08-6.528L511.616 455.168 264.128 750.08a18.24 18.24 0 0 1-14.08 6.528H158.848a9.088 9.088 0 0 1-7.04-14.976L451.84 384.064l-299.968-357.632a9.088 9.088 0 0 1 6.976-14.976h91.2a18.56 18.56 0 0 1 14.08 6.528l247.424 295.04 247.424-295.04a18.24 18.24 0 0 1 14.08-6.528h91.136a9.088 9.088 0 0 1 7.04 14.976L571.136 384.064z"  horiz-adv-x="1024" />
      
      <glyph glyph-name="icon-upload" unicode="&#59114;" d="M512 5.568A378.432 378.432 0 1 0 512 762.432a378.432 378.432 0 0 0 0-756.864z m0-89.024A467.456 467.456 0 1 1 512 851.52a467.456 467.456 0 0 1 0-934.976z m44.544 560.32v-337.792H467.52V476.864L343.168 352.512l-62.976 62.976 200.32 200.32L512 647.296l31.488-31.488 200.32-200.32-62.912-62.976-124.352 124.352z"  horiz-adv-x="1024" />
      
      <glyph glyph-name="icon-close-circle" unicode="&#59115;" d="M512 832a448 448 0 1 1 0.064-896.064A448 448 0 0 1 512 832z m165.376-618.24l-65.92 0.32L512 332.608l-99.328-118.4-66.048-0.32a7.936 7.936 0 0 0-8 8c0 1.92 0.64 3.712 1.92 5.184L470.528 382.08 340.48 536.96a8 8 0 0 0 6.08 13.184l66.112-0.256L512 431.424l99.328 118.4 65.92 0.256c4.48 0 8.064-3.456 8.064-8a8.32 8.32 0 0 0-1.92-5.12l-129.92-154.944 130.048-155.008a8 8 0 0 0-6.08-13.184z"  horiz-adv-x="1024" />
      
      <glyph glyph-name="icon-right" unicode="&#59116;" d="M296.192 783.552v-103.168c0-5.824 2.88-11.328 7.552-14.72l293.952-307.2-293.952-286.4a18.368 18.368 0 0 1-7.552-14.72v-124.096c0-7.424 8.448-11.712 14.528-7.424l401.92 403.008a36.48 36.48 0 0 1 0 59.072L511.68 589.44l-200.96 201.536a9.088 9.088 0 0 1-14.528-7.36z"  horiz-adv-x="1024" />
      
      <glyph glyph-name="icon-Down" unicode="&#59117;" d="M937.152 574.208H833.92a18.368 18.368 0 0 1-14.72-7.552L512 272.64 225.664 566.656a18.368 18.368 0 0 1-14.72 7.552H86.784a9.152 9.152 0 0 1-7.424-14.528l402.944-401.92a36.48 36.48 0 0 1 59.136 0l201.472 200.96 201.472 200.96a9.088 9.088 0 0 1-7.296 14.528z"  horiz-adv-x="1024" />
      
      <glyph glyph-name="a-IPavailability" unicode="&#59101;" d="M725.76 565.76h-53.632a36.416 36.416 0 0 1-29.632-15.232L462.848 301.44 381.504 414.336a36.544 36.544 0 0 1-29.632 15.168h-53.568c-7.424 0-11.776-8.448-7.424-14.528L433.28 217.6a36.288 36.288 0 0 1 59.072 0l240.64 333.696a9.088 9.088 0 0 1-7.296 14.528zM512 896a512 512 0 1 1 0.064-1024.064A512 512 0 0 1 512 896z m0-937.152A425.216 425.216 0 0 0 512 809.152a425.216 425.216 0 0 0 0-850.304z"  horiz-adv-x="1024" />
      
      <glyph glyph-name="icon-info-circle" unicode="&#59103;" d="M512 832a448 448 0 1 1 0.064-896.064A448 448 0 0 1 512 832z m32-664a8 8 0 0 0-8-8h-48a8 8 0 0 0-8 8v272c0 4.416 3.584 8 8 8h48c4.416 0 8-3.584 8-8v-272zM512 512a48 48 0 0 0 0 96A48 48 0 0 0 512 512z"  horiz-adv-x="1024" />
      
      <glyph glyph-name="icon-zuoqiehuan" unicode="&#59104;" d="M682.624 85.312l-384 307.2 384 307.2v-614.4z"  horiz-adv-x="1024" />
      
      <glyph glyph-name="a-IPduration" unicode="&#59105;" d="M899.84 694.4c8.96-8.32 19.84-12.16 31.36-12.16a46.592 46.592 0 0 1 31.36 81.28l-60.16 54.4-60.16 55.04a46.592 46.592 0 1 1-62.72-69.12l25.6-23.04-46.72-51.84a481.728 481.728 0 0 1-183.04 83.2c-1.92 14.72-6.4 31.36-18.56 46.72C544 874.88 520.32 894.08 476.16 896h-1.92c-40.96 0-64-17.92-76.8-32.64-14.08-16.64-19.84-35.84-22.4-51.2C161.28 766.08 0 575.36 0 347.52 0 85.12 213.12-128 474.88-128s474.88 213.12 474.88 475.52c0 122.24-46.72 234.24-122.88 318.72l46.72 51.84 25.6-23.68h0.64zM474.88-34.56c-210.56 0-381.44 171.52-381.44 382.08 0 210.56 170.88 382.08 381.44 382.08s381.44-171.52 381.44-382.08c0-210.56-171.52-382.08-381.44-382.08z m81.28 382.08c0-44.16-36.48-80.64-80.64-80.64-44.16 0-79.36 35.84-79.36 80.64 0 26.88 11.52 50.56 34.56 65.28V601.6c0 25.6 21.12 46.72 46.72 46.72 25.6 0 46.72-21.12 46.72-46.72v-188.8c23.04-14.72 32.64-38.4 32.64-65.28h-0.64z"  horiz-adv-x="1024" />
      
      <glyph glyph-name="zhiding" unicode="&#59102;" d="M568.64 801.6L525.504 844.8l-43.136-43.136L102.4 421.632 188.672 335.36l275.84 275.84v-697.088h122.048V611.136l275.84-275.776 86.208 86.272-379.968 379.968z"  horiz-adv-x="1024" />
      
      <glyph glyph-name="a-Fingerprintbrowserdetection" unicode="&#59100;" d="M749.312 115.2a32 32 0 1 0-64 0v134.4a179.2 179.2 0 0 1-358.592 0v-115.2a32 32 0 1 0-64 0v115.2a243.2 243.2 0 0 0 486.592 0v-134.4z m149.888 500.928a32 32 0 1 0-49.088-41.088A447.104 447.104 0 0 1 505.984 736c-128.64 0-248.32-54.4-332.8-148.032a32 32 0 0 0-47.616 42.88A510.976 510.976 0 0 0 505.984 800a511.232 511.232 0 0 0 393.216-183.872zM883.712 268.8a32 32 0 1 0-64 0 313.664 313.664 0 0 1-199.424 292.16 32 32 0 1 0 23.36 59.52A377.664 377.664 0 0 0 883.776 268.8zM506.048 646.4a32 32 0 0 0 0-64 313.664 313.664 0 0 1-313.728-313.6 32 32 0 1 0-64 0c0 208.512 169.152 377.6 377.728 377.6z m0-371.2a25.6 25.6 0 0 1-25.6-25.088l0.192-5.12c0.768-20.608 1.152-41.216 1.28-61.824 0-19.904-0.512-36.48-1.6-49.088a274.688 274.688 0 0 0-32.064-109.504 222.272 222.272 0 0 0-23.616-35.072c-5.12-6.208-9.472-10.688-12.416-13.312a32 32 0 0 0-42.816 47.616l0.96 0.96c1.408 1.472 3.072 3.328 4.992 5.568 6.336 7.744 11.968 16.128 16.704 24.96 12.864 23.488 21.696 51.456 24.512 84.224 0.832 10.368 1.28 25.344 1.28 43.584 0 19.84-0.448 39.68-1.216 59.52l-0.192 5.632V249.6a89.6 89.6 0 0 0 179.2 0v-171.072a32 32 0 0 0-64 0V249.6a25.6 25.6 0 0 1-25.6 25.6z"  horiz-adv-x="1024" />
      
    </font>
</defs>
</svg>
